首页 » 电影 » [欧美] [复仇者联盟3:无限战争]Avengers.Infinity.War.2018.1080p.BluRay.x264-Replica 12G
  • 资源分类:BT分享»电影
  • 资源提供:c448060623
  • 分享情况:  种子:30,下载:101,完成:131
  • 健  康  度:14%
  • 文件大小:12.1GB  (查看文件详情)
  • 发布日期:2018/08/03 20:55:39
  • 下载本站资源,您必须安装相应的P2P下载软件。我们推荐使用BitComet正式版下载BT资源,eMule下载电驴资源。
  • 该资源由网友 c448060623 提供,分享目的仅供大家学习与参考,如有侵权,请联系:admin@xfsub.com及时删除!
默认下载" 默认下载
电信下载" 电信下载 磁力链(Magnet 磁力下载
镜像下载" 镜像下载
谷歌搜索本资源种子" 谷歌搜索本资源种子

资源介绍 | 下载本资源

 

◎译  名 复仇者联盟3:无限战争/复仇者联盟3:无限之战(港)/复仇者联盟:无限之战(台)
◎片  名 Avengers: Infinity War
◎年  代 2018
◎国  家 美国
◎类  别 动作/冒险/奇幻
◎语  言 英语
◎字  幕 英文
◎IMDb评分 8.7/10 from 407023 users
◎IMDB链接 https://www.imdb.com/title/tt4154756/
◎蓝光高清   http://www.4ktt.com
◎文件格式 x264 + DTS
◎视频尺寸 1920x808
◎文件大小 12.05 GiB
◎片  长 2 h 29 min
◎导  演 安东尼·卢素 Anthony Russo
乔·卢素 Joe Russo
◎主  演 小罗伯特·唐尼 Robert Downey Jr.
克里斯·海姆斯沃斯 Chris Hemsworth
克里斯·埃文斯 Chris Evans
马克·鲁弗洛 Mark Ruffalo
乔什·布洛林 Josh Brolin
佐伊·索尔达娜 Zoe Saldana
本尼迪克特·康伯巴奇 Benedict Cumberbatch
克里斯·普拉特 Chris Pratt
汤姆·霍兰德 Tom Holland
伊丽莎白·奥尔森 Elizabeth Olsen
保罗·贝坦尼 Paul Bettany
斯嘉丽·约翰逊 Scarlett Johansson
查德维克·博斯曼 Chadwick Boseman
塞巴斯蒂安·斯坦 Sebastian Stan
唐·钱德尔 Don Cheadle
汤姆·希德勒斯顿 Tom Hiddleston
安东尼·麦凯 Anthony Mackie
本尼迪克特·王 Benedict Wong
戴夫·巴蒂斯塔 Dave Bautista
布莱德利·库珀 Bradley Cooper
范·迪塞尔 Vin Diesel
凯伦·吉兰 Karen Gillan
利蒂希娅·赖特 Letitia Wright
庞·克莱门捷夫 Pom Klementieff
凯莉·库恩 Carrie Coon
汤姆-沃恩-劳勒 Tom Vaughan-Lawlor
海登·瓦尔希 Hynden Walch
迈克尔·詹姆斯·肖 Michael James Shaw
泰瑞·诺塔里 Terry Notary
本尼西奥·德尔·托罗 Benicio Del Toro
彼特·丁拉基 Peter Dinklage
罗斯·马昆德 Ross Marquand
丹娜·奎里拉 Danai Gurira
温斯顿·杜克 Winston Duke
弗洛伦丝·卡松巴 Florence Kasumba
塞缪尔·杰克逊 Samuel L. Jackson
雅各布·巴特朗 Jacob Batalon
斯坦·李 Stan Lee

◎简  介
复仇者联盟的一众超级英雄,必须抱着牺牲一切的信念,与史上最强大反派灭霸殊死一搏,阻止其摧毁宇宙的邪恶计划。


花    絮
.《复仇者联盟3:无限战争》是漫威电影宇宙10周年历史性集结,将作为漫威宇宙第三阶段收官之作。

.《复仇者联盟3》是有史以来第一部全片使用IMAX摄影机拍摄的好莱坞商业大片。在IMAX影院放映时,全片以上下扩展至IMAX 1.9:1的宽高比来呈现。

.《复联3》的预售票房不仅超过了此前7部漫威电影预售票房的总和,还一口气将《黑豹》在年初创造的最高预售纪录提高了整整一倍。

.《复仇者联盟3》包含2680个特效镜头。其实整部影片只有4个镜头没带特效。电影整个特效团队涉及上千人。

.参与《复联3》特效制作的公司,包括工业光魔、维塔工作室、双重否定(DNEG)、Method Studios、Framestore、Cinesite、数字王国、RISE等等,几乎囊括世界所有一流特效工作室。

.《复联3》中有9个全特效制作的重要角色,其中火箭浣熊、格鲁特和灭霸就拥有超过600个特效镜头。

.全片几乎所有的灭霸镜头都是由香港特效公司数字王国打造的,谢霆锋是该公司大中华区主席。

.灭霸对视效团队来说是最大的挑战,他们也承担了很大的压力,很早之前他们就对灭霸角色做了各种尝试,而最终通过特效呈现出来的造型、装备、招式、破坏力都令乔什布洛林啧啧称奇。

.钢铁侠和蜘蛛侠在泰坦星上与灭霸的战斗动画是无法用动作捕捉采集的,因为缺少那种超级英雄的速度感和重量感还有打击感,所以还是用传统的手key动画来完成。

.电影开场钢铁侠和小辣椒在中央公园跑步的戏份是在亚特兰大的一个公园中拍摄的,后期用特效作出中央公园的背景。

Video
ID : 1
Format : AVC
Format/Info : Advanced Video Codec
Format profile : High@L4.1
Format settings : CABAC / 5 Ref Frames
Format settings, CABAC : Yes
Format settings, RefFrames : 5 frames
Codec ID : V_MPEG4/ISO/AVC
Duration : 2 h 29 min
Bit rate : 10.0 Mb/s
Width : 1 920 pixels
Height : 808 pixels
Display aspect ratio : 2.40:1
Frame rate mode : Constant
Frame rate : 23.976 (24000/1001) FPS
Color space : YUV
Chroma subsampling : 4:2:0
Bit depth : 8 bits
Scan type : Progressive
Bits/(Pixel*Frame) : 0.269
Stream size : 10.2 GiB (85%)
Writing library : x264 core 155 r2901 7d0ff22
Encoding settings : cabac=1 / ref=5 / deblock=1:0:0 / analyse=0x3:0x113 / me=umh / subme=8 / psy=1 / psy_rd=1.00:0.00 / mixed_ref=1 / me_range=16 / chroma_me=1 / trellis=1 / 8x8dct=1 / cqm=0 / deadzone=21,11 / fast_pskip=1 / chroma_qp_offset=-2 / threads=24 / lookahead_threads=4 / sliced_threads=0 / nr=0 / decimate=1 / interlaced=0 / bluray_compat=0 / constrained_intra=0 / bframes=3 / b_pyramid=2 / b_adapt=1 / b_bias=0 / direct=3 / weightb=1 / open_gop=0 / weightp=2 / keyint=240 / keyint_min=24 / scenecut=40 / intra_refresh=0 / rc_lookahead=50 / rc=2pass / mbtree=1 / bitrate=10007 / ratetol=1.0 / qcomp=0.60 / qpmin=0 / qpmax=69 / qpstep=4 / cplxblur=20.0 / qblur=0.5 / ip_ratio=1.40 / aq=1:1.00
Language : English
Default : Yes
Forced : No

Audio
ID : 2
Format : DTS
Format/Info : Digital Theater Systems
Mode : 16
Format settings, Endianness : Big
Codec ID : A_DTS
Duration : 2 h 29 min
Bit rate mode : Constant
Bit rate : 1 509 kb/s
Channel(s) : 6 channels
Channel positions : Front: L C R, Side: L R, LFE
Sampling rate : 48.0 kHz
Frame rate : 93.750 FPS (512 SPF)
Bit depth : 24 bits
Compression mode : Lossy
Stream size : 1.57 GiB (13%)
Language : English
Default : Yes
Forced : No

Text #1
ID : 3
Format : UTF-8
Codec ID : S_TEXT/UTF8
Codec ID/Info : UTF-8 Plain Text
Title : English forced
Language : English
Default : No
Forced : Yes

Text #2
ID : 4
Format : UTF-8
Codec ID : S_TEXT/UTF8
Codec ID/Info : UTF-8 Plain Text
Title : English regular
Language : English
Default : No
Forced : No

Text #3
ID : 5
Format : UTF-8
Codec ID : S_TEXT/UTF8
Codec ID/Info : UTF-8 Plain Text
Title : English SDH
Language : English
Default : No
Forced : No


文件信息 | 下载本资源 文件总数:6,文件总大小:12.1GB

Info Hash:0553cb47a2603a95bc4377cb1264da106c3adb9b

文件信息:6 个文件, 总大小 12.1GB

Tracker:http://tracker.xfsub.com:6868/announce

Tracker:http://tracker.xfsub.com:6868/scrape

 
  • Avengers.Infinity.War.2018.1080p.BluRay.x264-Replica[rarbg]
    • Subs
      • rep-avengersinfinitywar.2018.1080p.bluray.x264.idx(300.7KB)
      • rep-avengersinfinitywar.2018.1080p.bluray.x264.sub(38MB)
    • RARBG.txt(30Bytes)
    • rep-avengersinfinitywar.2018.1080p.bluray.x264.jpg(288.9KB)
    • rep-avengersinfinitywar.2018.1080p.bluray.x264.mkv(12.0GB)
    • rep-avengersinfinitywar.2018.1080p.bluray.x264.nfo(6.5KB)
 

网友评论(0) | 下载本资源

正在加载评论,请稍候......
发表我的看法(评论内容长度最多允许 1000 字)
评论内容
  
发表评论小贴士:
1.类似「顶、沙发」之类没有营养的文字,对勤劳贡献的发布者来说是令人沮丧的反馈信息。
2.提问之前请再仔细看一遍楼主的说明,或许是您遗漏了。
3.勿催片。请相信动漫字幕组对分享是富有激情的,如果确有更新资源,您一定能搜索到。
4.请勿到处挖坑绊人、招贴广告。既占空间让人厌烦,又没人会搭理,于人于己都无利。
5.如果您发现自己的评论不见了,请参考以上4条。
验证码