热门搜索:
火影忍者(New)海贼王(New)海賊王(New)柯南(New)龙珠(New)è(New)FATE(New)银魂(New)(New)剧场版(New)进击的巨人(New)the(New)高达(New)驱魔少年(New)火影(New)gundam(New)极影(New)bd(New)jojo(New)食戟之灵(New)one(New)东京食尸鬼(New)V(New)Gintama(New)
首页 » 电影 » 晚娘上部:恋欲.Jan Dara.The Beginning.2012.TH.UNCUT.BluRay.1920x816p.x264.DTS-KOOK.[中英双字]
  • 资源分类:BT分享»电影
  • 资源提供:movie
  • 分享情况:  种子:29,下载:259,完成:48
  • 健 康 度:49%
  • 文件大小:10.9GB  (查看文件详情)
  • 发布日期:2018/01/14 02:00:58
  • 下载本站资源,您必须安装相应的P2P下载软件。我们推荐使用BitComet正式版下载BT资源,eMule下载电驴资源。
  • 该资源由网友 movie 提供,分享目的仅供大家学习与参考,如有侵权,请联系:admin@xfsub.com及时删除!
默认下载" 默认下载
电信下载" 电信下载 磁力链(Magnet 磁力下载
镜像下载" 镜像下载
谷歌搜索本资源种子" 谷歌搜索本资源种子

资源介绍 | 下载本资源

晚娘上部:恋欲.Jan Dara.The Beginning.2012.TH.UNCUT.BluRay.1920x816p.x264.DTS-KOOK.[中英双字] 10.8GB

※※※※※※※ 影片信息 ※※※※※※※

◎片   名 Jan Dara: The Beginning

◎译   名 晚娘上部:恋欲 / 晚娘:风月豪门(港) / Capture of Jan Dara / 晚娘2012(上)

◎年   代 2012

◎国   家 泰国

◎类   别 剧情 / 情色

◎语   言 泰语

◎上映日 期 2012-09-06(泰国) / 2012-11-29(香港) / 2012-11-30(台湾)

◎字   幕 中英双字/简体字幕/繁体字幕/英文字幕

◎IMDB 评分 5.7/10 from 365 users

◎豆瓣 评分 4.9/10 from 8634 users

◎视频尺 寸 1920x816p

◎片   长 2.16.12

◎导   演 Pantewanop Tewakul

◎编 剧 M.L. Pundhevanop Dhewakul

◎主   演 马里奥·毛瑞尔 / 查亚鹏·朱利·普帕特 / Sakarat Ritthumrong / Bongkot Kongmalai Bongkot Kongmalai / 萨维卡·恰雅德

◎简  介

  

真达拉(马里奥?毛瑞尔 Mario Maurer 饰)的母亲因为难产去世,痛失最爱的父亲将他视为这一切的罪魁祸首。祖母的阻挠让真达拉免于被扼杀于襁褓的命运,却无法帮他逃过其后的日子父亲各种的残酷手段与言语的折磨。后来,父亲娶了新的妻子华姨,并生了一个名叫乔的女儿。父亲把所有的宠爱都给了乔(西野翔 Sh? Nishino 饰),从小给她灌输着仇恨真达拉的观念。母亲去世后父亲像变了一个人一样,过起了荒淫无度的生活,真拉达亲眼目睹这父亲变态的性爱游戏,在这种充满欲望的生活氛围中长大。一天,父亲带着性感成熟的新欢晚娘回到家中,就在真拉达被诬陷强暴妹妹乔而被赶出家门的时候,晚娘发现原来自己早已迷恋上了年轻的真拉达,一场不羁的伦理纠葛就此展开…

※※※※※※※ 参数信息 ※※※※※※※

General

Unique ID : 203517617488195559621370861269694885724 (0x991C113F5CD2616D91E328CC71112F5C)

Format : Matroska

Format version : Version 4 / Version 2

File size : 10.9 GiB

Duration : 2 h 16 min

Overall bit rate : 11.4 Mb/s

Encoded date : UTC 2018-01-06 11:06:22

Writing application : mkvmerge v9.4.2 ('So High') 64bit

Writing library : libebml v1.3.4 + libmatroska v1.4.5

Attachments : 正式海报 泰国.jpg / STKAITI.TTF

Video

ID : 1

Format : AVC

Format/Info : Advanced Video Codec

Format profile : High@L4.1

Format settings, CABAC : Yes

Format settings, ReFrames : 5 frames

Codec ID : V_MPEG4/ISO/AVC

Duration : 2 h 16 min

Bit rate : 9 928 kb/s

Width : 1 920 pixels

Height : 816 pixels

Display aspect ratio : 2.35:1

Frame rate mode : Constant

Frame rate : 24.000 FPS

Color space : YUV

Chroma subsampling : 4:2:0

Bit depth : 8 bits

Scan type : Progressive

Bits/(Pixel*Frame) : 0.264

Stream size : 9.44 GiB (87%)

Title : hahay0yo@CHD

Writing library : x264 core 128 r2216+698 b3c1019

Encoding settings : cabac=1 / ref=5 / deblock=1:-3:-3 / analyse=0x3:0x113 / me=umh / subme=10 / psy=1 / fade_compensate=0.00 / psy_rd=1.10:0.10 / mixed_ref=1 / me_range=48 / chroma_me=1 / trellis=2 / 8x8dct=1 / cqm=0 / deadzone=21,11 / fast_pskip=0 / chroma_qp_offset=-2 / threads=12 / lookahead_threads=2 / sliced_threads=0 / nr=0 / decimate=1 / interlaced=0 / bluray_compat=0 / constrained_intra=0 / fgo=0 / bframes=6 / b_pyramid=2 / b_adapt=2 / b_bias=0 / direct=3 / weightb=1 / open_gop=0 / weightp=2 / keyint=250 / keyint_min=24 / scenecut=40 / intra_refresh=0 / rc_lookahead=40 / rc=2pass / mbtree=0 / bitrate=9928 / ratetol=2.0 / qcomp=0.70 / qpmin=0 / qpmax=69 / qpstep=4 / cplxblur=20.0 / qblur=0.5 / vbv_maxrate=40000 / vbv_bufsize=30000 / nal_hrd=none / ip_ratio=1.40 / pb_ratio=1.30 / aq=2:1.00

Language : tai

Default : Yes

Forced : No

Audio

ID : 2

Format : DTS

Format/Info : Digital Theater Systems

Mode : 16

Format settings, Endianness : Big

Codec ID : A_DTS

Duration : 2 h 16 min

Bit rate mode : Constant

Bit rate : 1 509 kb/s

Channel(s) : 6 channels

Channel positions : Front: L C R, Side: L R, LFE

Sampling rate : 48.0 kHz

Frame rate : 93.750 FPS (512 spf)

Bit depth : 16 bits

Compression mode : Lossy

Stream size : 1.44 GiB (13%)

Title : Thai DTS 5.1 1509Kbps

Language : tai

Default : Yes

Forced : No

Text #1

ID : 3

Format : ASS

Codec ID : S_TEXT/ASS

Codec ID/Info : Advanced Sub Station Alpha

Duration : 2 h 12 min

Bit rate : 156 b/s

Count of elements : 1218

Compression mode : Lossless

Stream size : 153 KiB (0%)

Title : 中英字幕

Language : Chinese

Default : Yes

Forced : No

Text #2

ID : 4

Format : ASS

Codec ID : S_TEXT/ASS

Codec ID/Info : Advanced Sub Station Alpha

Duration : 2 h 12 min

Bit rate : 66 b/s

Count of elements : 1218

Compression mode : Lossless

Stream size : 64.3 KiB (0%)

Title : 简体字幕

Language : Chinese

Default : No

Forced : No

Text #3

ID : 5

Format : ASS

Codec ID : S_TEXT/ASS

Codec ID/Info : Advanced Sub Station Alpha

Duration : 2 h 12 min

Bit rate : 66 b/s

Count of elements : 1218

Compression mode : Lossless

Stream size : 64.3 KiB (0%)

Default : No

Forced : No

Text #4

ID : 6

Format : ASS

Codec ID : S_TEXT/ASS

Codec ID/Info : Advanced Sub Station Alpha

Duration : 2 h 12 min

Bit rate : 122 b/s

Count of elements : 1209

Compression mode : Lossless

Stream size : 119 KiB (0%)

Default : No

Forced : No

文件信息 | 下载本资源 文件总数:9,文件总大小:10.9GB

Info Hash:075b3cb93632d24c50f3bae55540855185e2497b

文件信息:9 个文件, 总大小 10.9GB

Tracker:http://tracker.xfsub.com:6868/announce

Tracker:http://tracker.xfsub.com:6868/scrape

 
  • 晚娘上部:恋欲.Jan Dara.The Beginning.2012.TH.UNCUT.BluRay.1920x816p.x264.DTS-KOOK.[中英双字]
    • 影片信息.txt(6.8KB)
    • 影片资料.txt(3.2KB)
    • 晚娘上部:恋欲.Jan Dara.The Beginning.2012.TH.UNCUT.BluRay.1920x816p.x264.DTS-KOOK.[中英双字].jpg(670.9KB)
    • 晚娘上部:恋欲.Jan Dara.The Beginning.2012.TH.UNCUT.BluRay.1920x816p.x264.DTS-KOOK.[中英双字].mkv(10.9GB)
    • 正式海报 台湾.jpg(838.8KB)
    • 正式海报 新加坡.jpg(90.9KB)
    • 正式海报 泰国.jpg(571.7KB)
    • 正式海报 韩国.jpg(1.2MB)
    • 正式海报 香港.jpg(105.4KB)
 

网友评论(0) | 下载本资源

正在加载评论,请稍候......
发表我的看法(评论内容长度最多允许 1000 字)
评论内容
  
发表评论小贴士:
1.类似「顶、沙发」之类没有营养的文字,对勤劳贡献的发布者来说是令人沮丧的反馈信息。
2.提问之前请再仔细看一遍楼主的说明,或许是您遗漏了。
3.勿催片。请相信动漫字幕组对分享是富有激情的,如果确有更新资源,您一定能搜索到。
4.请勿到处挖坑绊人、招贴广告。既占空间让人厌烦,又没人会搭理,于人于己都无利。
5.如果您发现自己的评论不见了,请参考以上4条。
验证码