首页 » 电影 » [索马里海盗]The.Pirates.of.Somalia.2017.1080p.BluRay.x264.DTS-HDC 8.5GB
  • 资源分类:BT分享»电影
  • 资源提供:movie
  • 分享情况:  种子:11,下载:269,完成:31
  • 健 康 度:18%
  • 文件大小:10.3GB  (查看文件详情)
  • 发布日期:2018/01/13 00:23:52
  • 下载本站资源,您必须安装相应的P2P下载软件。我们推荐使用BitComet正式版下载BT资源,eMule下载电驴资源。
  • 该资源由网友 movie 提供,分享目的仅供大家学习与参考,如有侵权,请联系:admin@xfsub.com及时删除!
默认下载" 默认下载
电信下载" 电信下载 磁力链(Magnet 磁力下载
镜像下载" 镜像下载
谷歌搜索本资源种子" 谷歌搜索本资源种子

资源介绍 | 下载本资源

Image
◎译  名 索马里海盗/逃离索马里
◎片  名 The Pirates of Somalia
◎年  代 2017
◎产  地 美国/南非/肯尼亚/索马里/苏丹
◎类  别 剧情/传记
◎语  言 英语
◎上映日期 2017-12-08(美国)
◎IMDb评分 6.9/10 from 1,944 users
◎IMDb链接 http://www.imdb.com/title/tt5126922/
◎豆瓣评分 6.1/10 from 203 users
◎蓝光高清 http://www.4ktt.com
◎片  长 116分钟
◎导  演 布莱恩·巴克利 Bryan Buckley
◎主  演 阿尔·帕西诺 Al Pacino
      埃文·彼得斯 Evan Peters
      梅兰尼·格里菲斯 Melanie Griffith
      巴克德·阿巴蒂 Barkhad Abdi
      罗素·普斯勒 Russell Posner
      罗伯特·霍布斯 Robert Hobbs
      Philip Ettinger
      Edward Gelbinovich
◎简  介
  故事讲述年轻记者杰伊·巴哈杜尔(彼得斯饰)偶然遇到曾经叱咤风云的战地记者(帕西诺饰)。在一番沟通后,他选择前往索马里采访。
Video
ID : 1
Format : AVC
Format/Info : Advanced Video Codec
Format profile : High@L4.1
Format settings : CABAC / 5 Ref Frames
Format settings, CABAC : Yes
Format settings, ReFrames : 5 frames
Codec ID : V_MPEG4/ISO/AVC
Duration : 1 h 57 min
Bit rate : 8 888 kb/s
Width : 1 920 pixels
Height : 800 pixels
Display aspect ratio : 2.40:1
Frame rate mode : Constant
Frame rate : 23.976 (24000/1001) FPS
Color space : YUV
Chroma subsampling : 4:2:0
Bit depth : 8 bits
Scan type : Progressive
Bits/(Pixel*Frame) : 0.241
Stream size : 7.31 GiB (85%)
Title : The.Pirates.of.Somalia.2017.1080p.BluRay.x264.DTS-HDC
Writing library : x264 core 152 r2851kMod ba24899
Encoding settings : cabac=1 / ref=5 / deblock=1:-3:-3 / analyse=0x3:0x133 / me=umh / subme=11 / psy=1 / fade_compensate=0.00 / psy_rd=1.05:0.00 / mixed_ref=1 / me_range=48 / chroma_me=1 / trellis=2 / 8x8dct=1 / cqm=0 / deadzone=21,11 / fast_pskip=0 / chroma_qp_offset=-2 / threads=24 / lookahead_threads=4 / sliced_threads=0 / nr=0 / decimate=0 / interlaced=0 / bluray_compat=0 / constrained_intra=0 / bframes=8 / b_pyramid=2 / b_adapt=2 / b_bias=0 / direct=3 / weightb=1 / open_gop=0 / weightp=2 / keyint=240 / keyint_min=2 / scenecut=40 / intra_refresh=0 / rc=crf / mbtree=0 / crf=17.5000 / qcomp=0.70 / qpmin=0 / qpmax=69 / qpstep=4 / ip_ratio=1.30 / pb_ratio=1.20 / aq=3:0.80
Language : English
Default : Yes
Forced : No
Audio
ID : 2
Format : DTS
Format/Info : Digital Theater Systems
Codec ID : A_DTS
Duration : 1 h 57 min
Bit rate mode : Constant
Bit rate : 1 509 kb/s
Channel(s) : 6 channels
Channel positions : Front: L C R, Side: L R, LFE
Sampling rate : 48.0 kHz
Frame rate : 93.750 FPS (512 SPF)
Bit depth : 24 bits
Compression mode : Lossy
Stream size : 1.24 GiB (15%)
Title : The.Pirates.of.Somalia.2017.1080p.BluRay.x264.DTS-HDC
Language : English
Default : Yes
Forced : No
ImageImage
ImageImage
ImageImage

文件信息 | 下载本资源 文件总数:2,文件总大小:10.3GB

Info Hash:65bbf96d782897385baa1fb5ad651247ce32f048

文件信息:2 个文件, 总大小 10.3GB

Tracker:http://tracker.xfsub.com:6868/announce

Tracker:http://tracker.xfsub.com:6868/scrape

 
  • The.Pirates.of.Somalia.2017.1080p.BluRay.x264.DTS-HD.MA.5.1-HDC
    • RARBG.txt(31Bytes)
    • The.Pirates.of.Somalia.2017.1080p.BluRay.x264.DTS-HD.MA.5.1-HDC.mkv(10.3GB)
 

网友评论(0) | 下载本资源

正在加载评论,请稍候......
发表我的看法(评论内容长度最多允许 1000 字)
评论内容
  
发表评论小贴士:
1.类似「顶、沙发」之类没有营养的文字,对勤劳贡献的发布者来说是令人沮丧的反馈信息。
2.提问之前请再仔细看一遍楼主的说明,或许是您遗漏了。
3.勿催片。请相信动漫字幕组对分享是富有激情的,如果确有更新资源,您一定能搜索到。
4.请勿到处挖坑绊人、招贴广告。既占空间让人厌烦,又没人会搭理,于人于己都无利。
5.如果您发现自己的评论不见了,请参考以上4条。
验证码