首页 » 电影 » [帝一之国]2017.720p.BluRay.x264.DTS-WiKi 内封中字/4.47GB
  • 资源分类:BT分享»电影
  • 资源提供:movie
  • 分享情况:  种子:21,下载:204,完成:53
  • 健  康  度:22%
  • 文件大小:4.5GB  (查看文件详情)
  • 发布日期:2018/01/13 00:27:50
  • 下载本站资源,您必须安装相应的P2P下载软件。我们推荐使用BitComet正式版下载BT资源,eMule下载电驴资源。
  • 该资源由网友 movie 提供,分享目的仅供大家学习与参考,如有侵权,请联系:admin@xfsub.com及时删除!
默认下载" 默认下载
电信下载" 电信下载 磁力链(Magnet 磁力下载
镜像下载" 镜像下载
谷歌搜索本资源种子" 谷歌搜索本资源种子

资源介绍 | 下载本资源

Image
◎译  名 帝一之国
◎片  名 帝一の國
◎年  代 2017
◎产  地 日本
◎类  别 剧情/喜剧
◎语  言 日语
◎上映日期 2017-04-29(日本)
◎IMDb评分 7.4/10 from 119 users
◎IMDb链接 http://www.imdb.com/title/tt5293604/
◎豆瓣评分 8.1/10 from 9,068 users
◎蓝光高清 http://www.4ktt.com
◎片  长 118分钟
◎导  演 永井聪 Akira Nagai
◎主  演 菅田将晖 Masaki Suda
      野村周平 Shuhei Nomura
      竹内涼真 Ryoma Takeuchi
      间宫祥太朗 Shotaro Mamiya
      志尊淳 Jun Shison
      千叶雄大 Yudai Chiba
      永野芽郁 Mei Nagano
      铃木胜大 Katsuhiko Suzuki
      萩原利久 Riku Hagiwara
      冈山天音 Okayama Amane
      井之胁海 Kai Inowaki
      木村了 Ryo Kimura
      吉田钢太郎 Kôtarô Yoshida
◎简  介
  生长于政治世家的赤场帝一(菅田将晖饰),从小就以当上日本总理为目标,为了建立自己的王国,他必须在孕育出多位政治领袖,人称「超精英学校」的海帝高校展露头角,只有当过海帝高校学生会长的人,未来才有机会角逐总理的宝座。「我一定打败所有竞争对手,站在顶点!为此我会不择手段!」比谁都早开始计划的帝一,将要面对意想不到的陷阱和试炼!斗个你死我活的学生会长选举战争即将华丽展开!
◎获奖情况
  第42届报知映画赏 (2017)
  最佳男主角 菅田将晖
  第4届豆瓣电影年度榜单 (2017)
  评分最高的日本电影(提名)
Video
ID : 1
Format : AVC
Format/Info : Advanced Video Codec
Format profile : High@L4.1
Format settings : CABAC / 12 Ref Frames
Format settings, CABAC : Yes
Format settings, ReFrames : 12 frames
Codec ID : V_MPEG4/ISO/AVC
Duration : 1 h 57 min
Bit rate : 4 668 kb/s
Width : 1 280 pixels
Height : 536 pixels
Display aspect ratio : 2.40:1
Frame rate mode : Constant
Frame rate : 23.976 (24000/1001) FPS
Color space : YUV
Chroma subsampling : 4:2:0
Bit depth : 8 bits
Scan type : Progressive
Bits/(Pixel*Frame) : 0.284
Stream size : 3.84 GiB (86%)
Writing library : x264 core 129 r2245+704+36 8e61944 tMod+MixAQ [8-bit@4:2:0 X86_64]
Encoding settings : cabac=1 / ref=12 / deblock=1:-3:-3 / analyse=0x3:0x133 / me=umh / subme=11 / psy=1 / fade_compensate=0.00 / psy_rd=1.05:0.10 / mixed_ref=1 / me_range=32 / chroma_me=1 / trellis=2 / 8x8dct=1 / cqm=0 / deadzone=21,11 / fast_pskip=0 / chroma_qp_offset=-3 / threads=18 / lookahead_threads=3 / sliced_threads=0 / nr=0 / decimate=0 / interlaced=0 / bluray_compat=0 / constrained_intra=0 / fgo=0 / bframes=10 / b_pyramid=2 / b_adapt=2 / b_bias=0 / direct=3 / weightb=1 / open_gop=0 / weightp=2 / keyint=250 / keyint_min=23 / scenecut=40 / intra_refresh=0 / rc=2pass / mbtree=0 / bitrate=4668 / ratetol=1.0 / qcomp=0.70 / qpmin=0 / qpmax=69 / qpstep=4 / cplxblur=20.0 / qblur=0.5 / ip_ratio=1.40 / pb_ratio=1.30 / aq=1 / aq-strength=0.90 / aq-sensitivity=10.00 / aq-ifactor=1.00 / aq-pfactor=1.00 / aq-bfactor=1.00 / aq2=0
Language : Japanese
Default : Yes
Forced : No
Audio
ID : 2
Format : DTS
Format/Info : Digital Theater Systems
Codec ID : A_DTS
Duration : 1 h 57 min
Bit rate mode : Constant
Bit rate : 768 kb/s
Channel(s) : 6 channels
Channel positions : Front: L C R, Side: L R, LFE
Sampling rate : 48.0 kHz
Frame rate : 93.750 FPS (512 SPF)
Bit depth : 24 bits
Compression mode : Lossy
Stream size : 648 MiB (14%)
Language : Japanese
Default : Yes
Forced : No
Text #1
ID : 3
Format : UTF-8
Codec ID : S_TEXT/UTF8
Codec ID/Info : UTF-8 Plain Text
Duration : 1 h 57 min
Bit rate : 55 b/s
Count of elements : 2125
Stream size : 47.7 KiB (0%)
Title : Simplified
Language : Chinese
Default : Yes
Forced : No
Text #2
ID : 4
Format : UTF-8
Codec ID : S_TEXT/UTF8
Codec ID/Info : UTF-8 Plain Text
Duration : 1 h 57 min
Bit rate : 55 b/s
Count of elements : 2125
Stream size : 47.7 KiB (0%)
Title : Traditional
Language : Chinese
Default : No
Forced : No
ImageImage
ImageImage
ImageImage

文件信息 | 下载本资源 文件总数:2,文件总大小:4.5GB

Info Hash:7842c52a8d4d8c0a508f81f2f1ba19c67688f94d

文件信息:2 个文件, 总大小 4.5GB

Tracker:http://tracker.xfsub.com:6868/announce

Tracker:http://tracker.xfsub.com:6868/scrape

 
  • Teiichi.Battle.of.Supreme.High.2017.720p.BluRay.x264.DTS-WiKi
    • RARBG.txt(31Bytes)
    • Teiichi.Battle.of.Supreme.High.2017.720p.BluRay.x264.DTS-WiKi.mkv(4.5GB)
 

网友评论(0) | 下载本资源

正在加载评论,请稍候......
发表我的看法(评论内容长度最多允许 1000 字)
评论内容
  
发表评论小贴士:
1.类似「顶、沙发」之类没有营养的文字,对勤劳贡献的发布者来说是令人沮丧的反馈信息。
2.提问之前请再仔细看一遍楼主的说明,或许是您遗漏了。
3.勿催片。请相信动漫字幕组对分享是富有激情的,如果确有更新资源,您一定能搜索到。
4.请勿到处挖坑绊人、招贴广告。既占空间让人厌烦,又没人会搭理,于人于己都无利。
5.如果您发现自己的评论不见了,请参考以上4条。
验证码