首页 » 电影 » 动画短片.大眼仔的新车.Mike's New Car.2002.US.BluRay.1920x1080p.x264.LPCM-KOOK.[中英双字]
  • 资源分类:BT分享»电影
  • 资源提供:movie
  • 分享情况:  种子:7,下载:231,完成:20
  • 健 康 度:38%
  • 文件大小:489MB  (查看文件详情)
  • 发布日期:2018/01/14 02:00:51
  • 下载本站资源,您必须安装相应的P2P下载软件。我们推荐使用BitComet正式版下载BT资源,eMule下载电驴资源。
  • 该资源由网友 movie 提供,分享目的仅供大家学习与参考,如有侵权,请联系:admin@xfsub.com及时删除!
默认下载" 默认下载
电信下载" 电信下载 磁力链(Magnet 磁力下载
镜像下载" 镜像下载
谷歌搜索本资源种子" 谷歌搜索本资源种子

资源介绍 | 下载本资源

动画短片.大眼仔的新车.Mike's New Car.2002.US.BluRay.1920x1080p.x264.LPCM-KOOK.[中英双字] 487M

※※※※※※※ 影片信息 ※※※※※※※

◎片   名 Mike's New Car

◎译   名 大眼仔的新车

◎年   代 2002

◎国   家 美国

◎类   别 动画 / 短片 / 家庭

◎语   言 英语

◎上映日 期 2002-05-24(美国)

◎字   幕 中英双字/简体字幕/繁体字幕/英文字幕

◎IMDB 评分 7.2/10 from 9857 users

◎豆瓣 评分 7.4/10 from 16981 users

◎视频尺 寸 1920x1080p

◎片   长 0.04.00

◎导   演 彼特·道格特 / Roger Gould

◎编 剧 彼特·道格特 / Jeff Pidgeon

◎主   演 比利·克里斯托 / 约翰·古德曼

◎简  介

  怪物城市一个宁静祥和的日子。麦克·华斯基(比利·克里斯托 Billy Crystal 配音),可爱的大眼仔,这个高傲臭屁的独眼小怪物换了一辆超级先进、全自动化的六轮驱动汽车。他抑制不住心中的狂喜,首先邀请他的好伙伴毛怪(约翰·古德曼 John Goodman 配音)参观、搭乘。苏利文在车中毛手毛脚的行为让大眼仔颇为恼火,他禁止毛怪碰触任何按钮,可是自己又显然还没掌握全部的操作要领。结果折腾了半天汽车没有开动,倒霉的大眼仔却三番五次遭遇磨难。原本准备炫耀一番,结果成了丢人现眼……

  本片为皮克斯工作室首支有对话并且派生自长片作品的动画短片。

第75届奥斯卡金像奖 最佳动画短片(提名) 彼特·道格特 / 罗杰·古尔德

※※※※※※※ 参数信息 ※※※※※※※

General

Unique ID : 192737633256544308183398308167526444384 (0x90FFEAFD74611E78A4412187E588ED60)

Format : Matroska

Format version : Version 4 / Version 2

File size : 488 MiB

Duration : 4 min

Overall bit rate : 17.0 Mb/s

Encoded date : UTC 2018-01-07 04:25:35

Writing application : mkvmerge v9.4.2 ('So High') 64bit

Writing library : libebml v1.3.4 + libmatroska v1.4.5

Attachments : 正式海报.jpg

Video

ID : 1

Format : AVC

Format/Info : Advanced Video Codec

Format profile : High@L4.1

Format settings, CABAC : Yes

Format settings, ReFrames : 4 frames

Codec ID : V_MPEG4/ISO/AVC

Duration : 3 min

Bit rate : 13.0 Mb/s

Width : 1 920 pixels

Height : 1 080 pixels

Display aspect ratio : 16:9

Frame rate mode : Constant

Frame rate : 23.976 FPS

Color space : YUV

Chroma subsampling : 4:2:0

Bit depth : 8 bits

Scan type : Progressive

Bits/(Pixel*Frame) : 0.261

Stream size : 355 MiB (73%)

Title : kook

Writing library : x264 core 148 r2721+46 0c4b09a xiaowan [8-bit@all X86_64]

Encoding settings : cabac=1 / ref=4 / deblock=1:1:1 / analyse=0x3:0x133 / me=umh / subme=10 / psy=1 / fade_compensate=0.00 / psy_rd=0.30:0.00 / mixed_ref=1 / me_range=24 / chroma_me=1 / trellis=2 / 8x8dct=1 / cqm=0 / deadzone=21,11 / fast_pskip=1 / chroma_qp_offset=-2 / threads=12 / lookahead_threads=1 / sliced_threads=0 / nr=0 / decimate=1 / interlaced=0 / bluray_compat=0 / constrained_intra=0 / fgo=0 / bframes=3 / b_pyramid=2 / b_adapt=2 / b_bias=0 / direct=3 / weightb=1 / open_gop=0 / weightp=2 / keyint=240 / keyint_min=1 / scenecut=60 / intra_refresh=0 / rc_lookahead=60 / rc=2pass / mbtree=1 / bitrate=13000 / ratetol=1.0 / qcomp=0.50 / qpmin=0:0:0 / qpmax=69:69:69 / qpstep=4 / cplxblur=20.0 / qblur=0.5 / ip_ratio=1.40 / aq=2:0.80 / aq-sensitivity=10.00 / aq-factor=1.00:1.00:1.00 / aq2=0 / aq3=0

Default : Yes

Forced : No

Color range : Limited

Matrix coefficients : BT.709

Audio

ID : 2

Format : PCM

Codec ID : A_PCM/INT/LIT

Duration : 4 min

Bit rate mode : Constant

Bit rate : 4 608 kb/s

Channel(s) : 6 channels

Sampling rate : 48.0 kHz

Frame rate : 200.000 FPS (240 spf)

Bit depth : 16 bits

Delay relative to video : 65 ms

Stream size : 132 MiB (27%)

Default : Yes

Forced : No

Text #1

ID : 3

Format : ASS

Codec ID : S_TEXT/ASS

Codec ID/Info : Advanced Sub Station Alpha

Duration : 3 min

Bit rate : 150 b/s

Count of elements : 36

Compression mode : Lossless

Stream size : 4.17 KiB (0%)

Title : 中英字幕

Language : Chinese

Default : Yes

Forced : No

Text #2

ID : 4

Format : ASS

Codec ID : S_TEXT/ASS

Codec ID/Info : Advanced Sub Station Alpha

Duration : 3 min

Bit rate : 99 b/s

Count of elements : 36

Compression mode : Lossless

Stream size : 2.74 KiB (0%)

Title : 简体字幕

Language : Chinese

Default : No

Forced : No

Text #3

ID : 5

Format : ASS

Codec ID : S_TEXT/ASS

Codec ID/Info : Advanced Sub Station Alpha

Duration : 3 min

Bit rate : 99 b/s

Count of elements : 36

Compression mode : Lossless

Stream size : 2.74 KiB (0%)

Title : 繁体字幕

Language : Chinese

Default : No

Forced : No

Text #4

ID : 6

Format : ASS

Codec ID : S_TEXT/ASS

Codec ID/Info : Advanced Sub Station Alpha

Duration : 3 min

Bit rate : 120 b/s

Count of elements : 36

Compression mode : Lossless

Stream size : 3.32 KiB (0%)

Title : 英文字幕

Language : English

Default : No

Forced : No

文件信息 | 下载本资源 文件总数:5,文件总大小:489MB

Info Hash:78fd79d76c7239cf06d83a3983d4a986bde26980

文件信息:5 个文件, 总大小 489MB

Tracker:http://tracker.xfsub.com:6868/announce

Tracker:http://tracker.xfsub.com:6868/scrape

 
  • 大眼仔的新车.Mike's New Car.2002.US.BluRay.1920x1080p.x264.LPCM-KOOK.[中英双字]
    • 大眼仔的新车.Mike's New Car.2002.US.BluRay.1920x1080p.x264.LPCM-KOOK.[中英双字].jpg(647.8KB)
    • 大眼仔的新车.Mike's New Car.2002.US.BluRay.1920x1080p.x264.LPCM-KOOK.[中英双字].mkv(487.5MB)
    • 影片信息.txt(6.5KB)
    • 正式海报.jpg(178.2KB)
    • 正式海报1.jpg(33.9KB)
 

网友评论(0) | 下载本资源

正在加载评论,请稍候......
发表我的看法(评论内容长度最多允许 1000 字)
评论内容
  
发表评论小贴士:
1.类似「顶、沙发」之类没有营养的文字,对勤劳贡献的发布者来说是令人沮丧的反馈信息。
2.提问之前请再仔细看一遍楼主的说明,或许是您遗漏了。
3.勿催片。请相信动漫字幕组对分享是富有激情的,如果确有更新资源,您一定能搜索到。
4.请勿到处挖坑绊人、招贴广告。既占空间让人厌烦,又没人会搭理,于人于己都无利。
5.如果您发现自己的评论不见了,请参考以上4条。
验证码