首页 » 电影 » [蓝天白云]2017.1080p.BluRay.x264-WiKi 粤语中字/7.5GB
  • 资源分类:BT分享»电影
  • 资源提供:movie
  • 分享情况:  种子:18,下载:250,完成:58
  • 健  康  度:35%
  • 文件大小:7.5GB  (查看文件详情)
  • 发布日期:2018/04/16 22:36:14
  • 下载本站资源,您必须安装相应的P2P下载软件。我们推荐使用BitComet正式版下载BT资源,eMule下载电驴资源。
  • 该资源由网友 movie 提供,分享目的仅供大家学习与参考,如有侵权,请联系:admin@xfsub.com及时删除!
默认下载" 默认下载
电信下载" 电信下载 磁力链(Magnet 磁力下载
镜像下载" 镜像下载
谷歌搜索本资源种子" 谷歌搜索本资源种子

资源介绍 | 下载本资源

Image
◎译  名 蓝天白云
◎片  名 藍天白雲
◎年  代 2017
◎产  地 香港
◎类  别 剧情
◎语  言 粤语
◎上映日期 2017-10-15(釜山电影节)/2018-01-18(香港)
◎IMDb评分 6.2/10 from 32 users
◎IMDb链接 http://www.imdb.com/title/tt7757028/
◎豆瓣评分 6.7/10 from 148 users
◎蓝光高清 http://www.4ktt.com
◎片  长 86分钟
◎导  演 张经纬 King Wai Cheung
◎主  演 邓丽欣 Stephy Tang
      梁雍婷 Rachel Leung
      李任燊 Kyle Li
      宝佩如 Baby Bo
◎简  介
  《藍天白雲》故事講述一宗迷離殺人事件。
  中學生Connie (梁雍婷 飾),Connie天生患有心漏病,朋友不多,計劃謿㈦p親卻自知體弱,因此決定將同班同學Eric (顧定軒 飾)拖下水,兩人成為共犯。Connie於弒親後毫無悔意,案件由重案組女探員Angela(鄧麗欣 飾)接手調查。
  新婚的Angela與患有癡呆症的親(黃樹棠 飾)及老公Tony(李任燊 飾)一起生活,剛懷孕的Angela看似擁有幸福美滿的家庭,卻發現自己的情緒愈來愈受案件影響,慢慢地她似乎開始了解Connie為何會走上這條不歸路…
◎获奖情况
  第37届香港电影金像奖 (2018)
  最佳编剧(提名) 张经纬
  最佳女配角(提名) 宝佩如
  最佳新演员(提名) 梁雍婷
  第22届釜山国际电影节 (2017)
  新浪潮奖(提名) 张经纬
Video
ID : 1
Format : AVC
Format/Info : Advanced Video Codec
Format profile : High@L4.1
Format settings : CABAC / 4 Ref Frames
Format settings, CABAC : Yes
Format settings, ReFrames : 4 frames
Codec ID : V_MPEG4/ISO/AVC
Duration : 1 h 27 min
Bit rate : 11.7 Mb/s
Width : 1 920 pixels
Height : 1 040 pixels
Display aspect ratio : 1.85:1
Frame rate mode : Constant
Frame rate : 24.000 FPS
Color space : YUV
Chroma subsampling : 4:2:0
Bit depth : 8 bits
Scan type : Progressive
Bits/(Pixel*Frame) : 0.243
Stream size : 7.11 GiB (95%)
Writing library : x264 core 129 r2245+704+36 8e61944 tMod+MixAQ [8-bit@4:2:0 X86_64]
Encoding settings : cabac=1 / ref=4 / deblock=1:-3:-3 / analyse=0x3:0x133 / me=umh / subme=11 / psy=1 / fade_compensate=0.00 / psy_rd=1.05:0.10 / mixed_ref=1 / me_range=64 / chroma_me=1 / trellis=2 / 8x8dct=1 / cqm=0 / deadzone=21,11 / fast_pskip=0 / chroma_qp_offset=-3 / threads=18 / lookahead_threads=3 / sliced_threads=0 / nr=0 / decimate=0 / interlaced=0 / bluray_compat=0 / constrained_intra=0 / fgo=0 / bframes=10 / b_pyramid=2 / b_adapt=2 / b_bias=0 / direct=3 / weightb=1 / open_gop=0 / weightp=2 / keyint=250 / keyint_min=24 / scenecut=40 / intra_refresh=0 / rc=2pass / mbtree=0 / bitrate=11656 / ratetol=1.0 / qcomp=0.70 / qpmin=0 / qpmax=69 / qpstep=4 / cplxblur=20.0 / qblur=0.5 / ip_ratio=1.40 / pb_ratio=1.30 / aq=1 / aq-strength=0.90 / aq-sensitivity=10.00 / aq-ifactor=1.00 / aq-pfactor=1.00 / aq-bfactor=1.00 / aq2=0
Language : Chinese
Default : Yes
Forced : No
Audio
ID : 2
Format : AC-3
Format/Info : Audio Coding 3
Codec ID : A_AC3
Duration : 1 h 27 min
Bit rate mode : Constant
Bit rate : 640 kb/s
Channel(s) : 6 channels
Channel positions : Front: L C R, Side: L R, LFE
Sampling rate : 48.0 kHz
Frame rate : 31.250 FPS (1536 SPF)
Bit depth : 16 bits
Compression mode : Lossy
Stream size : 400 MiB (5%)
Language : Chinese
Service kind : Complete Main
Default : Yes
Forced : No
Text #1
ID : 3
Format : UTF-8
Codec ID : S_TEXT/UTF8
Codec ID/Info : UTF-8 Plain Text
Duration : 1 h 20 min
Bit rate : 13 b/s
Count of elements : 488
Stream size : 8.18 KiB (0%)
Title : Simplified
Language : Chinese
Default : Yes
Forced : No
Text #2
ID : 4
Format : UTF-8
Codec ID : S_TEXT/UTF8
Codec ID/Info : UTF-8 Plain Text
Duration : 1 h 20 min
Bit rate : 13 b/s
Count of elements : 488
Stream size : 8.18 KiB (0%)
Title : Traditional
Language : Chinese
Default : No
Forced : No
ImageImage

文件信息 | 下载本资源 文件总数:2,文件总大小:7.5GB

Info Hash:b4c8c520da4539b1d25fe787fba9b3f9731d8829

文件信息:2 个文件, 总大小 7.5GB

Tracker:http://tracker.xfsub.com:6868/announce

Tracker:http://tracker.xfsub.com:6868/scrape

 
  • Somewhere.Beyond.the.Mist.2017.1080p.BluRay.x264-WiKi
    • RARBG.txt(31Bytes)
    • Somewhere.Beyond.the.Mist.2017.1080p.BluRay.x264-WiKi.mkv(7.5GB)
 

网友评论(0) | 下载本资源

正在加载评论,请稍候......
发表我的看法(评论内容长度最多允许 1000 字)
评论内容
  
发表评论小贴士:
1.类似「顶、沙发」之类没有营养的文字,对勤劳贡献的发布者来说是令人沮丧的反馈信息。
2.提问之前请再仔细看一遍楼主的说明,或许是您遗漏了。
3.勿催片。请相信动漫字幕组对分享是富有激情的,如果确有更新资源,您一定能搜索到。
4.请勿到处挖坑绊人、招贴广告。既占空间让人厌烦,又没人会搭理,于人于己都无利。
5.如果您发现自己的评论不见了,请参考以上4条。
验证码