首页 » 电影 » 堕落东京.Tokyo Decadence.1992.JP.BluRay.1792x1080p.x264.DTS-KOOK.[中英双字]
  • 资源分类:BT分享»电影
  • 资源提供:movie
  • 分享情况:  种子:7,下载:211,完成:59
  • 健 康 度:36%
  • 文件大小:10.9GB  (查看文件详情)
  • 发布日期:2018/01/14 02:00:55
  • 下载本站资源,您必须安装相应的P2P下载软件。我们推荐使用BitComet正式版下载BT资源,eMule下载电驴资源。
  • 该资源由网友 movie 提供,分享目的仅供大家学习与参考,如有侵权,请联系:admin@xfsub.com及时删除!
默认下载" 默认下载
电信下载" 电信下载 磁力链(Magnet 磁力下载
镜像下载" 镜像下载
谷歌搜索本资源种子" 谷歌搜索本资源种子

资源介绍 | 下载本资源

堕落东京.Tokyo Decadence.1992.JP.BluRay.1792x1080p.x264.DTS-KOOK.[中英双字] 10.9GB

※※※※※※※ 影片信息 ※※※※※※※

◎片   名 トパーズ

◎译   名 堕落东京 / Topazu / Tokyo Decadence

◎年   代 1992

◎国   家 日本

◎类   别 剧情

◎语   言 日语

◎上映日 期 1992-01-06(日本)

◎字   幕 中英双字/简体字幕/繁体字幕/英文字幕

◎IMDB 评分 6.1/10 from 2333 users

◎豆瓣 评分 6.5/10 from 1062 users

◎视频尺 寸 1792x1080p

◎片   长 1.52.28

◎导   演 村上龙

◎编 剧 村上龙

◎主   演 二阶堂美穗 / 天野小夜子 / 加納典明 / 岛田雅彦 / 三上寛

◎简  介

  嫖客是黑社会老大,和妓女在某大厦酒店内玩SM,他让妓女背对着他趴在落地玻璃窗上,扭动臀部,这个镜头可能是用直升飞机拍摄的:从中午到将暮的黄昏,光影在万丈高楼之间作几何运动,妓女一直趴在巨幅落地窗上。嫖客的要求很简单,就是扭到“湿”了为止。完了,嫖客问妓女:“你觉得你是一个怎样的人?”,妓女答:“是一个几乎没有用的人”。

  嫖客说:“错了,你很有潜质,你要相信自己。”然后嫖客叹了一口气:“哎,我活了40多岁,明白了,其实我是一个猥琐的人。”……影片揭示了日本社会的有钱阶层和中产阶级,内心的变态和失落。

※※※※※※※ 参数信息 ※※※※※※※

General

Unique ID : 253882061854527439875422963859893052877 (0xBEFFE812249DAB4697D0563343ECE5CD)

Format : Matroska

Format version : Version 4 / Version 2

File size : 10.9 GiB

Duration : 1 h 52 min

Overall bit rate : 13.9 Mb/s

Encoded date : UTC 2018-01-13 09:13:10

Writing application : mkvmerge v9.4.2 ('So High') 64bit

Writing library : libebml v1.3.4 + libmatroska v1.4.5

Attachments : 正式海报.jpg / STKAITI.TTF

Video

ID : 1

Format : AVC

Format/Info : Advanced Video Codec

Format profile : High@L4.1

Format settings, CABAC : Yes

Format settings, ReFrames : 4 frames

Codec ID : V_MPEG4/ISO/AVC

Duration : 1 h 52 min

Bit rate : 12.9 Mb/s

Width : 1 792 pixels

Height : 1 080 pixels

Display aspect ratio : 5:3

Frame rate mode : Constant

Frame rate : 23.976 (24000/1001) FPS

Color space : YUV

Chroma subsampling : 4:2:0

Bit depth : 8 bits

Scan type : Progressive

Bits/(Pixel*Frame) : 0.279

Stream size : 10.2 GiB (93%)

Writing library : x264 core 152 r2851 ba24899

Encoding settings : cabac=1 / ref=4 / deblock=1:-3:-3 / analyse=0x3:0x133 / me=umh / subme=9 / psy=1 / psy_rd=1.00:0.00 / mixed_ref=1 / me_range=16 / chroma_me=1 / trellis=2 / 8x8dct=1 / cqm=0 / deadzone=21,11 / fast_pskip=0 / chroma_qp_offset=-2 / threads=18 / lookahead_threads=1 / sliced_threads=0 / nr=0 / decimate=1 / interlaced=0 / bluray_compat=0 / constrained_intra=0 / bframes=3 / b_pyramid=2 / b_adapt=1 / b_bias=0 / direct=3 / weightb=1 / open_gop=0 / weightp=2 / keyint=240 / keyint_min=24 / scenecut=40 / intra_refresh=0 / rc_lookahead=50 / rc=2pass / mbtree=1 / bitrate=12938 / ratetol=1.0 / qcomp=0.60 / qpmin=0 / qpmax=69 / qpstep=4 / cplxblur=20.0 / qblur=0.5 / ip_ratio=1.40 / aq=1:1.00

Language : English

Default : Yes

Forced : No

Audio

ID : 2

Format : DTS

Format/Info : Digital Theater Systems

Mode : 16

Format settings, Endianness : Big

Codec ID : A_DTS

Duration : 1 h 52 min

Bit rate mode : Constant

Bit rate : 960 kb/s

Channel(s) : 2 channels

Channel positions : Front: L R

Sampling rate : 48.0 kHz

Frame rate : 93.750 FPS (512 spf)

Bit depth : 24 bits

Compression mode : Lossy

Stream size : 772 MiB (7%)

Language : Japanese

Default : Yes

Forced : No

Text #1

ID : 3

Format : ASS

Codec ID : S_TEXT/ASS

Codec ID/Info : Advanced Sub Station Alpha

Duration : 1 h 48 min

Bit rate : 92 b/s

Count of elements : 613

Compression mode : Lossless

Stream size : 73.4 KiB (0%)

Title : 中英字幕

Language : Chinese

Default : Yes

Forced : No

Text #2

ID : 4

Format : ASS

Codec ID : S_TEXT/ASS

Codec ID/Info : Advanced Sub Station Alpha

Duration : 1 h 48 min

Bit rate : 37 b/s

Count of elements : 613

Compression mode : Lossless

Stream size : 30.0 KiB (0%)

Title : 简体字幕

Language : Chinese

Default : No

Forced : No

Text #3

ID : 5

Format : ASS

Codec ID : S_TEXT/ASS

Codec ID/Info : Advanced Sub Station Alpha

Duration : 1 h 48 min

Bit rate : 37 b/s

Count of elements : 613

Compression mode : Lossless

Stream size : 30.0 KiB (0%)

Title : 繁体字幕

Language : Chinese

Default : No

Forced : No

Text #4

ID : 6

Format : ASS

Codec ID : S_TEXT/ASS

Codec ID/Info : Advanced Sub Station Alpha

Duration : 1 h 48 min

Bit rate : 74 b/s

Count of elements : 613

Compression mode : Lossless

Stream size : 59.4 KiB (0%)

Title : 英文字幕

Language : English

Default : No

Forced : No

Menu

00:00:00.000 : en:00:00:00.000

00:05:03.428 : en:00:05:03.428

00:10:43.977 : en:00:10:43.977

00:17:10.780 : en:00:17:10.780

00:23:58.562 : en:00:23:58.562

00:30:32.539 : en:00:30:32.539

00:35:03.560 : en:00:35:03.560

00:40:45.026 : en:00:40:45.026

00:50:42.039 : en:00:50:42.039

00:56:05.988 : en:00:56:05.988

01:00:23.662 : en:01:00:23.662

01:06:16.931 : en:01:06:16.931

01:15:19.515 : en:01:15:19.515

01:21:46.652 : en:01:21:46.652

01:26:38.902 : en:01:26:38.902

01:33:26.434 : en:01:33:26.434

01:38:41.415 : en:01:38:41.415

01:42:32.897 : en:01:42:32.897

01:48:04.269 : en:01:48:04.269

01:50:35.254 : en:01:50:35.254

文件信息 | 下载本资源 文件总数:6,文件总大小:10.9GB

Info Hash:e6aa064adc42e8c3bc68a34f7d320f5ab8bc8391

文件信息:6 个文件, 总大小 10.9GB

Tracker:http://tracker.xfsub.com:6868/announce

Tracker:http://tracker.xfsub.com:6868/scrape

 
  • 堕落东京.Tokyo Decadence.1992.JP.BluRay.1792x1080p.x264.DTS-KOOK.[中英双字]
    • 堕落东京.Tokyo Decadence.1992.JP.BluRay.1792x1080p.x264.DTS-KOOK.[中英双字].jpg(589.7KB)
    • 堕落东京.Tokyo Decadence.1992.JP.BluRay.1792x1080p.x264.DTS-KOOK.[中英双字].mkv(10.9GB)
    • 影片信息.txt(7.4KB)
    • 正式海报.jpg(257.9KB)
    • 正式海报1.jpg(71.3KB)
    • 正式海报韩国.jpg(171.7KB)
 

网友评论(0) | 下载本资源

正在加载评论,请稍候......
发表我的看法(评论内容长度最多允许 1000 字)
评论内容
  
发表评论小贴士:
1.类似「顶、沙发」之类没有营养的文字,对勤劳贡献的发布者来说是令人沮丧的反馈信息。
2.提问之前请再仔细看一遍楼主的说明,或许是您遗漏了。
3.勿催片。请相信动漫字幕组对分享是富有激情的,如果确有更新资源,您一定能搜索到。
4.请勿到处挖坑绊人、招贴广告。既占空间让人厌烦,又没人会搭理,于人于己都无利。
5.如果您发现自己的评论不见了,请参考以上4条。
验证码