首页 » 电影 » 晚娘下部:罪色.Jan Dara.The Finale.2013.TH.UNCUT.BluRay.1920x816p.x264.DTS-KOOK.[中英双字]
  • 资源分类:BT分享»电影
  • 资源提供:movie
  • 分享情况:  种子:7,下载:197,完成:33
  • 健 康 度:25%
  • 文件大小:10.9GB  (查看文件详情)
  • 发布日期:2018/01/14 02:00:59
  • 下载本站资源,您必须安装相应的P2P下载软件。我们推荐使用BitComet正式版下载BT资源,eMule下载电驴资源。
  • 该资源由网友 movie 提供,分享目的仅供大家学习与参考,如有侵权,请联系:admin@xfsub.com及时删除!
默认下载" 默认下载
电信下载" 电信下载 磁力链(Magnet 磁力下载
镜像下载" 镜像下载
谷歌搜索本资源种子" 谷歌搜索本资源种子

资源介绍 | 下载本资源

晚娘下部:罪色.Jan Dara.The Finale.2013.TH.UNCUT.BluRay.1920x816p.x264.DTS-KOOK.[中英双字]

※※※※※※※ 影片信息 ※※※※※※※

◎片   名 Jan Dara: The Finale

◎译   名 晚孃终篇:风月无边(港) / 晚娘下部:罪色(台) / 晚娘2012下部:最后一章 / Jan Dara: The Avengers / Jandara 2

◎年   代 2013

◎国   家 泰国

◎类   别 剧情/情色

◎语   言 泰语

◎上映日 期 2013-02-07(泰国)

◎字   幕 中英双字/简体字幕/繁体字幕/英文字幕

◎IMDB 评分 5.6/10 from 310 users

◎豆瓣 评分 5.2/10 from 3909 users

◎视频尺 寸 1920x816p

◎片   长 2.24.03

◎导   演 M.L. Pundhevanop Dhewakul

◎编 剧 M.L. Pundhevanop Dhewakul

◎主   演 马里奥·毛瑞尔 / 萨维卡·恰雅德 / 西野翔 / 查亚鹏·朱利·普帕特

◎简  介

  几年后,真接到继母的召唤,父亲要求他回家与已经怀有身孕,同父异母的妹妹乔(西野翔)成亲!百般惊讶的真在父亲答应他成为家族的主人后,回到家中。在逐步揭开自已身世的过程中,真似乎同时回到一个难以逃离的情欲轮回!

第23届泰国电影金天鹅奖 最佳男配角(提名) 查亚鹏·朱利·普帕特

第23届泰国电影金天鹅奖 最佳摄影(提名)

第23届泰国电影金天鹅奖 最佳配乐

※※※※※※※ 参数信息 ※※※※※※※

General

Unique ID : 241855706772183619999476618646319094304 (0xB5F3B6FC6F4C4A60B53490A9EE495A20)

Format : Matroska

Format version : Version 4 / Version 2

File size : 10.9 GiB

Duration : 2 h 24 min

Overall bit rate : 10.8 Mb/s

Encoded date : UTC 2018-01-08 12:03:48

Writing application : mkvmerge v9.4.2 ('So High') 64bit

Writing library : libebml v1.3.4 + libmatroska v1.4.5

Attachments : 正式海报 泰国.jpg / STKAITI.TTF

Video

ID : 1

Format : AVC

Format/Info : Advanced Video Codec

Format profile : High@L4.1

Format settings, CABAC : Yes

Format settings, ReFrames : 5 frames

Codec ID : V_MPEG4/ISO/AVC

Duration : 2 h 24 min

Bit rate : 9 298 kb/s

Width : 1 920 pixels

Height : 816 pixels

Display aspect ratio : 2.35:1

Frame rate mode : Constant

Frame rate : 24.000 FPS

Color space : YUV

Chroma subsampling : 4:2:0

Bit depth : 8 bits

Scan type : Progressive

Bits/(Pixel*Frame) : 0.247

Stream size : 9.35 GiB (86%)

Title : Jan.Dara.2.The.Finale.Uncut.2013

Writing library : x264 core 138 r2356 a1d3d17

Encoding settings : cabac=1 / ref=5 / deblock=1:-3:-3 / analyse=0x3:0x113 / me=umh / subme=10 / psy=1 / psy_rd=1.00:0.05 / mixed_ref=1 / me_range=32 / chroma_me=1 / trellis=2 / 8x8dct=1 / cqm=0 / deadzone=21,11 / fast_pskip=0 / chroma_qp_offset=-2 / threads=18 / lookahead_threads=1 / sliced_threads=0 / nr=0 / decimate=1 / interlaced=0 / bluray_compat=0 / constrained_intra=0 / bframes=5 / b_pyramid=2 / b_adapt=2 / b_bias=0 / direct=3 / weightb=1 / open_gop=0 / weightp=2 / keyint=250 / keyint_min=24 / scenecut=40 / intra_refresh=0 / rc=2pass / mbtree=0 / bitrate=9298 / ratetol=1.0 / qcomp=0.70 / qpmin=0 / qpmax=69 / qpstep=4 / cplxblur=20.0 / qblur=0.5 / ip_ratio=1.40 / pb_ratio=1.30 / aq=2:1.00

Language : English

Default : Yes

Forced : No

Audio

ID : 2

Format : DTS

Format/Info : Digital Theater Systems

Mode : 16

Format settings, Endianness : Big

Codec ID : A_DTS

Duration : 2 h 24 min

Bit rate mode : Constant

Bit rate : 1 509 kb/s

Channel(s) : 6 channels

Channel positions : Front: L C R, Side: L R, LFE

Sampling rate : 48.0 kHz

Frame rate : 93.750 FPS (512 spf)

Bit depth : 24 bits

Compression mode : Lossy

Stream size : 1.52 GiB (14%)

Title : DTS-CORE 1536K

Default : Yes

Forced : No

Text #1

ID : 3

Format : ASS

Codec ID : S_TEXT/ASS

Codec ID/Info : Advanced Sub Station Alpha

Duration : 2 h 20 min

Bit rate : 145 b/s

Count of elements : 1197

Compression mode : Lossless

Stream size : 150 KiB (0%)

Title : 中英字幕

Language : Chinese

Default : Yes

Forced : No

Text #2

ID : 4

Format : ASS

Codec ID : S_TEXT/ASS

Codec ID/Info : Advanced Sub Station Alpha

Duration : 2 h 20 min

Bit rate : 61 b/s

Count of elements : 1197

Compression mode : Lossless

Stream size : 63.5 KiB (0%)

Title : 简体字幕

Language : Chinese

Default : No

Forced : No

Text #3

ID : 5

Format : ASS

Codec ID : S_TEXT/ASS

Codec ID/Info : Advanced Sub Station Alpha

Duration : 2 h 20 min

Bit rate : 61 b/s

Count of elements : 1197

Compression mode : Lossless

Stream size : 63.5 KiB (0%)

Title : 繁体字幕

Language : Chinese

Default : No

Forced : No

Text #4

ID : 6

Format : ASS

Codec ID : S_TEXT/ASS

Codec ID/Info : Advanced Sub Station Alpha

Duration : 2 h 20 min

Bit rate : 113 b/s

Count of elements : 1188

Compression mode : Lossless

Stream size : 117 KiB (0%)

Title : 英文字幕

Language : English

Default : No

Forced : No

文件信息 | 下载本资源 文件总数:8,文件总大小:10.9GB

Info Hash:f340f39a900277ba5ca5fd2127518dbade9ce17f

文件信息:8 个文件, 总大小 10.9GB

Tracker:http://tracker.xfsub.com:6868/announce

Tracker:http://tracker.xfsub.com:6868/scrape

 
  • 晚娘下部:罪色.Jan Dara.The Finale.2013.TH.UNCUT.BluRay.1920x816p.x264.DTS-KOOK.[中英双字]
    • 影片信息.txt(6.5KB)
    • 影片资料.txt(3.2KB)
    • 晚娘下部:罪色.Jan Dara.The Finale.2013.TH.UNCUT.BluRay.1920x816p.x264.DTS-KOOK.[中英双字].jpg(544.8KB)
    • 晚娘下部:罪色.Jan Dara.The Finale.2013.TH.UNCUT.BluRay.1920x816p.x264.DTS-KOOK.[中英双字].mkv(10.9GB)
    • 正式海报 台湾.jpg(1.2MB)
    • 正式海报 泰国.jpg(307.8KB)
    • 正式海报 韩国.jpg(1.5MB)
    • 正式海报 香港.jpg(604.4KB)
 

网友评论(0) | 下载本资源

正在加载评论,请稍候......
发表我的看法(评论内容长度最多允许 1000 字)
评论内容
  
发表评论小贴士:
1.类似「顶、沙发」之类没有营养的文字,对勤劳贡献的发布者来说是令人沮丧的反馈信息。
2.提问之前请再仔细看一遍楼主的说明,或许是您遗漏了。
3.勿催片。请相信动漫字幕组对分享是富有激情的,如果确有更新资源,您一定能搜索到。
4.请勿到处挖坑绊人、招贴广告。既占空间让人厌烦,又没人会搭理,于人于己都无利。
5.如果您发现自己的评论不见了,请参考以上4条。
验证码