潘神的迷宫.Pan's Labyrinth.2006.ES.CC.#838.BluRay.1920x1080p.x264.DTS-HD.2Audios-KOOK - 动漫下载|BT下载|动画|漫画|片源|游戏 - 旋风动漫
首页 » 电影 » 潘神的迷宫.Pan's Labyrinth.2006.ES.CC.#838.BluRay.1920x1080p.x264.DTS-HD.2Audios-KOOK
  • 资源分类:BT分享»电影
  • 资源提供:movie
  • 分享情况:  种子:17,下载:199,完成:21
  • 健  康  度:22%
  • 文件大小:16.7GB  (查看文件详情)
  • 发布日期:2018/01/14 02:00:57
  • 下载本站资源,您必须安装相应的P2P下载软件。我们推荐使用BitComet正式版下载BT资源,eMule下载电驴资源。
  • 该资源由网友 movie 提供,分享目的仅供大家学习与参考,如有侵权,请联系:admin@xfsub.com及时删除!
默认下载" 默认下载
电信下载" 电信下载 磁力链(Magnet 磁力下载
镜像下载" 镜像下载
谷歌搜索本资源种子" 谷歌搜索本资源种子

资源介绍 | 下载本资源

CC标准版.潘神的迷宫.Pan's Labyrinth.2006.ES.CC.#838.BluRay.1920x1080p.x264.DTS-HD.2Audios-KOOK.[西英双语.中英双字] 16.1GB

※※※※※※※ 影片信息 ※※※※※※※

◎片   名 El laberinto del fauno

◎译   名 潘神的迷宫 / Pan's Labyrinth /潘的迷宫 / 羊男的迷宫 / 魔间迷宫 / 奇幻迷宫 / Pan's Labyrinth

◎年   代 2006

◎国   家 西班牙 / 墨西哥 / 美国

◎类   别 剧情 / 悬疑 / 战争 / 奇幻

◎语   言 西班牙语

◎上映日 期 2006-10-11(西班牙)

◎字   幕 中英双字/简体字幕/繁体字幕/英文字幕/西语字幕

◎IMDB 评分 8.2/10 from 522029 users

◎豆瓣 评分 7.8/10 from 125106 users

◎视频尺 寸 1920x1080p

◎片   长 1.59.22

◎导   演 吉尔莫·德尔·托罗

◎编 剧 吉尔莫·德尔·托罗

◎主   演 伊万娜·巴克罗 / 塞尔希·洛佩斯 / 玛丽维尔·贝尔杜 / 道格·琼斯 / 阿里亚德娜·希尔

Criterion Collection. 标准收藏 #838

◎简  介

  1944年,第二次世界大战后期,包括西班牙在内的广大南欧国家仍然笼罩在弗朗戈法西斯独裁政权和内战狼烟阴霾下。不过饱受弗朗戈领导的叛军蹂躏了长达几年之久的西班牙却仍然有不少地区尚未平息战乱,北部纳瓦拉的山区就依然有一小伙叛军仍在负隅顽抗,因此,西班牙军队还在四处搜捕、屠杀共产党员和民主人士。12岁的小女孩奥菲丽娅在战争中失去了父亲,母亲卡门马上就要生下继父的孩子,她和身怀六甲的母亲前往北部与继父维达会合。维达的是隶属于弗朗戈独裁政权的法西斯军官,负责在西班牙北部追查当地游击队的搜捕反抗组织和左派人士,并以绞刑、阉刑等残暴手段对其进行无情镇压,维达唯一的乐趣也是研究各种刑具来折磨残害被抓来的异见人士。接卡门母女过来同住与其说是共享天伦,还不如说只是要监视卡门把属于他的骨肉生下来。

※※※※※※※ 参数信息 ※※※※※※※

General

Unique ID : 183423865542090763240659593296290625689 (0x89FE26C9C54ED2BB81B320BD3841B899)

Format : Matroska

Format version : Version 4 / Version 2

File size : 16.2 GiB

Duration : 1 h 59 min

Overall bit rate mode : Variable

Overall bit rate : 19.4 Mb/s

Encoded date : UTC 2018-01-12 12:44:55

Writing application : mkvmerge v9.4.2 ('So High') 64bit

Writing library : libebml v1.3.4 + libmatroska v1.4.5

Attachments : 正式海报.jpg / STKAITI.TTF

Video

ID : 1

Format : AVC

Format/Info : Advanced Video Codec

Format profile : High@L4.1

Format settings, CABAC : Yes

Format settings, ReFrames : 4 frames

Codec ID : V_MPEG4/ISO/AVC

Duration : 1 h 59 min

Bit rate mode : Variable

Bit rate : 14.0 Mb/s

Maximum bit rate : 30.0 Mb/s

Width : 1 920 pixels

Height : 1 080 pixels

Display aspect ratio : 16:9

Frame rate mode : Constant

Frame rate : 23.976 (24000/1001) FPS

Color space : YUV

Chroma subsampling : 4:2:0

Bit depth : 8 bits

Scan type : Progressive

Bits/(Pixel*Frame) : 0.281

Stream size : 11.7 GiB (72%)

Language : Spanish

Default : Yes

Forced : No

Audio #1

ID : 2

Format : DTS

Format/Info : Digital Theater Systems

Format profile : MA / Core

Mode : 16

Format settings, Endianness : Big

Codec ID : A_DTS

Duration : 1 h 59 min

Bit rate mode : Variable / Constant

Bit rate : 5 169 kb/s / 1 509 kb/s

Channel(s) : 8 channels / 6 channels

Channel positions : Front: L C R, Side: L R, Back: L R, LFE / Front: L C R, Side: L R, LFE

Sampling rate : 48.0 kHz

Frame rate : 93.750 FPS (512 spf)

Bit depth : 24 bits

Compression mode : Lossless / Lossy

Stream size : 4.31 GiB (27%)

Language : Spanish

Default : Yes

Forced : No

Audio #2

ID : 3

Format : AC-3

Format/Info : Audio Coding 3

Mode extension : CM (complete main)

Format settings, Endianness : Big

Codec ID : A_AC3

Duration : 1 h 59 min

Bit rate mode : Constant

Bit rate : 192 kb/s

Channel(s) : 2 channels

Channel positions : Front: L R

Sampling rate : 48.0 kHz

Frame rate : 31.250 FPS (1536 spf)

Compression mode : Lossy

Stream size : 164 MiB (1%)

Language : English

Default : No

Forced : No

Text #1

ID : 4

Format : ASS

Codec ID : S_TEXT/ASS

Codec ID/Info : Advanced Sub Station Alpha

Duration : 1 h 53 min

Bit rate : 141 b/s

Count of elements : 855

Compression mode : Lossless

Stream size : 117 KiB (0%)

Title : 中英字幕

Language : Chinese

Default : Yes

Forced : No

Text #2

ID : 5

Format : ASS

Codec ID : S_TEXT/ASS

Codec ID/Info : Advanced Sub Station Alpha

Duration : 1 h 53 min

Bit rate : 62 b/s

Count of elements : 855

Compression mode : Lossless

Stream size : 51.5 KiB (0%)

Title : 简体字幕

Language : Chinese

Default : No

Forced : No

Text #3

ID : 6

Format : ASS

Codec ID : S_TEXT/ASS

Codec ID/Info : Advanced Sub Station Alpha

Duration : 1 h 53 min

Bit rate : 62 b/s

Count of elements : 855

Compression mode : Lossless

Stream size : 51.5 KiB (0%)

Title : 繁体字幕

Language : Chinese

Default : No

Forced : No

Text #4

ID : 7

Format : ASS

Codec ID : S_TEXT/ASS

Codec ID/Info : Advanced Sub Station Alpha

Duration : 1 h 53 min

Bit rate : 106 b/s

Count of elements : 855

Compression mode : Lossless

Stream size : 88.3 KiB (0%)

Title : 英文字幕

Language : English

Default : No

Forced : No

Text #5

ID : 8

Format : PGS

Muxing mode : zlib

Codec ID : S_HDMV/PGS

Codec ID/Info : Picture based subtitle format used on BDs/HD-DVDs

Duration : 1 h 50 min

Bit rate : 7 146 b/s

Count of elements : 1850

Stream size : 5.66 MiB (0%)

Title : 西语字幕

Language : Spanish

Default : No

Forced : No

Menu

00:00:00.000 : en:00:00:00.000

00:06:03.112 : en:00:06:03.112

00:09:43.332 : en:00:09:43.332

00:11:42.034 : en:00:11:42.034

00:14:44.174 : en:00:14:44.174

00:18:21.892 : en:00:18:21.892

00:25:04.085 : en:00:25:04.085

00:31:24.674 : en:00:31:24.674

00:38:45.698 : en:00:38:45.698

00:43:08.585 : en:00:43:08.585

00:46:29.161 : en:00:46:29.161

00:48:58.769 : en:00:48:58.769

00:52:22.722 : en:00:52:22.722

00:55:50.472 : en:00:55:50.472

01:02:48.222 : en:01:02:48.222

01:04:52.054 : en:01:04:52.054

01:08:09.460 : en:01:08:09.460

01:13:08.342 : en:01:13:08.342

01:16:56.737 : en:01:16:56.737

01:21:33.179 : en:01:21:33.179

01:27:10.058 : en:01:27:10.058

01:31:40.328 : en:01:31:40.328

01:36:39.001 : en:01:36:39.001

01:41:23.368 : en:01:41:23.368

01:42:02.032 : en:01:42:02.032

01:44:10.285 : en:01:44:10.285

01:52:31.494 : en:01:52:31.494

01:59:21.946 : en:01:59:21.946

文件信息 | 下载本资源 文件总数:19,文件总大小:16.7GB

Info Hash:fb32fa44046f9ab82f8fc55f579f22ff81b219de

文件信息:19 个文件, 总大小 16.7GB

Tracker:http://tracker.xfsub.com:6868/announce

Tracker:http://tracker.xfsub.com:6868/scrape

 
  • 潘神的迷宫.Pan's Labyrinth.2006.ES.CC.#838.BluRay.1920x1080p.x264.DTS-HD.2Audios-KOOK.[西英双语.中英双字]
    • Video.Comparisons
      • Video.Comparisons.1-Grym.mkv(98.5MB)
      • Video.Comparisons.2-Grym.mkv(53.3MB)
      • Video.Comparisons.3-Grym.mkv(98.5MB)
      • Video.Comparisons.4-Grym.mkv(72.8MB)
      • Video.Comparisons.5-Grym.mkv(35.9MB)
      • Video.Comparisons.6-Grym.mkv(72.6MB)
      • Video.Comparisons.7-Grym.mkv(47MB)
      • Video.Comparisons.8-Grym.mkv(20.8MB)
      • Video.Comparisons.9-Grym.mkv(46.8MB)
    • CC#838.txt(2KB)
    • CCDVD.jpg(145.3KB)
    • CC蓝光.jpg(506.9KB)
    • 影片信息.txt(11.3KB)
    • 影片资料.txt(10.7KB)
    • 正式海报.jpg(578.7KB)
    • 正式海报西班牙.png(1.9MB)
    • 正式海报香港.jpg(253.2KB)
    • 潘神的迷宫.Pan's Labyrinth.2006.ES.CC.#838.BluRay.1920x1080p.x264.DTS-HD.2Audios-KOOK.[西英双语.中英双字].jpg(471.6KB)
    • 潘神的迷宫.Pan's Labyrinth.2006.ES.CC.#838.BluRay.1920x1080p.x264.DTS-HD.2Audios-KOOK.[西英双语.中英双字].mkv(16.2GB)
 

网友评论(0) | 下载本资源

正在加载评论,请稍候......
发表我的看法(评论内容长度最多允许 1000 字)
评论内容
  
发表评论小贴士:
1.类似「顶、沙发」之类没有营养的文字,对勤劳贡献的发布者来说是令人沮丧的反馈信息。
2.提问之前请再仔细看一遍楼主的说明,或许是您遗漏了。
3.勿催片。请相信动漫字幕组对分享是富有激情的,如果确有更新资源,您一定能搜索到。
4.请勿到处挖坑绊人、招贴广告。既占空间让人厌烦,又没人会搭理,于人于己都无利。
5.如果您发现自己的评论不见了,请参考以上4条。
验证码