首页 » 电影 » 方子传.The Servant.2010.KR.BluRay.1920x816p.x264.DTS-KOOK.[韩语中字]
  • 资源分类:BT分享»电影
  • 资源提供:movie
  • 分享情况:  种子:14,下载:138,完成:43
  • 健 康 度:29%
  • 文件大小:9.3GB  (查看文件详情)
  • 发布日期:2017/09/13 18:33:29
  • 下载本站资源,您必须安装相应的P2P下载软件。我们推荐使用BitComet正式版下载BT资源,eMule下载电驴资源。
  • 该资源由网友 movie 提供,分享目的仅供大家学习与参考,如有侵权,请联系:admin@xfsub.com及时删除!
默认下载" 默认下载
电信下载" 电信下载 磁力链(Magnet 磁力下载
镜像下载" 镜像下载
谷歌搜索本资源种子" 谷歌搜索本资源种子

资源介绍 | 下载本资源

[2010] [韩国] [历史] [BD-1080P] [BT下载]方子传.The Servant.2010.KR.BluRay.1920x816p.x264.DTS-KOOK.[韩语中字]

方子传.The Servant.2010.KR.BluRay.1920x816p.x264.DTS-KOOK.[韩语中字]

※※※※※※※ 影片信息 ※※※※※※※

◎片   名 The Servant

◎译   名 方子传/ 房子传 / 情欲对决(台) /

◎年   代 2010

◎国   家 韩国

◎类   别 情色 / 历史

◎语   言 韩语

◎上映日 期 2010-06-03

◎字   幕 简体字幕/繁体字幕

◎IMDB 评分 6.6/10 from 473 users

◎豆瓣 评分 5.7/10 from 7586 users

◎视频尺 寸 1920x816p

◎片   长 2.04.49

◎导   演 金大佑

◎编 剧 金大宇

◎主   演 柳昇范 / 金柱赫 / 赵汝贞

◎简  介

  

黑道大哥方子(金柱赫 饰)找来当地知名的通俗小说家,拜托后者将自己的故事整理成文……方子是下人出身,在三十岁时进入了李梦龙(柳承范 饰)家作为其贴身仆人。梦龙在声色场所对妓寨老板娘的女儿——艺妓春香(赵茹珍 饰)一见钟情,方子虽然也对春香倾心有加,但碍于下人身份,只能依靠帮助梦龙出头来展示自己。与方子同屋的老马管事知晓了方子的苦恼,指点他在为梦龙和春香之间牵线搭桥的同时如何令自己获得属意。方子自此暗度陈仓,和梦龙几乎形成了公开的竞争关系,而春香方面,其母也是御男之道的各中高手。于是两男一女开始了一场绵中有力的情欲角逐,这场竞赛将导致怎样的结局?

  本片改编自朝鲜古典小说《春香传》。

※※※※※※※ 参数信息 ※※※※※※※

General

Unique ID : 215296791387508532983022976935491931996 (0xA1F8A75BEC0CB8AEBF3BC8DB07820F5C)

Format : Matroska

Format version : Version 4 / Version 2

File size : 9.33 GiB

Duration : 2 h 4 min

Overall bit rate : 10.7 Mb/s

Movie name : 时代影视论坛作品(www.sdy4.net)NowYS小组出品

Encoded date : UTC 2017-09-11 11:22:28

Writing application : mkvmerge v9.4.2 ('So High') 64bit

Writing library : libebml v1.3.4 + libmatroska v1.4.5

Attachments : 正式海报.jpg / STKAITI.TTF / msyh.ttf / msyhbd.ttf

Video

ID : 1

Format : AVC

Format/Info : Advanced Video Codec

Format profile : Main@L4

Format settings, CABAC : Yes

Format settings, ReFrames : 1 frame

Codec ID : V_MPEG4/ISO/AVC

Duration : 2 h 4 min

Bit rate : 9 200 kb/s

Width : 1 920 pixels

Height : 816 pixels

Display aspect ratio : 2.35:1

Frame rate mode : Constant

Frame rate : 23.976 (23976/1000) FPS

Color space : YUV

Chroma subsampling : 4:2:0

Bit depth : 8 bits

Scan type : Progressive

Bits/(Pixel*Frame) : 0.245

Stream size : 7.97 GiB (85%)

Writing library : x264 core 125

Encoding settings : cabac=1 / ref=1 / deblock=1:0:0 / analyse=0x1:0x131 / me=hex / subme=6 / psy=1 / psy_rd=1.00:0.00 / mixed_ref=0 / me_range=16 / chroma_me=1 / trellis=0 / 8x8dct=0 / cqm=0 / deadzone=21,11 / fast_pskip=1 / chroma_qp_offset=-2 / threads=4 / lookahead_threads=1 / sliced_threads=0 / nr=0 / decimate=1 / interlaced=0 / bluray_compat=0 / constrained_intra=0 / bframes=0 / weightp=2 / keyint=12 / keyint_min=7 / scenecut=40 / intra_refresh=0 / rc_lookahead=12 / rc=abr / mbtree=1 / bitrate=9200 / ratetol=1.0 / qcomp=0.60 / qpmin=6 / qpmax=51 / qpstep=4 / ip_ratio=1.40 / aq=1:1.00

Default : Yes

Forced : No

Audio

ID : 2

Format : DTS

Format/Info : Digital Theater Systems

Mode : 16

Format settings, Endianness : Big

Codec ID : A_DTS

Duration : 2 h 4 min

Bit rate mode : Constant

Bit rate : 1 509 kb/s

Channel(s) : 6 channels

Channel positions : Front: L C R, Side: L R, LFE

Sampling rate : 48.0 kHz

Frame rate : 93.750 FPS (512 spf)

Bit depth : 24 bits

Compression mode : Lossy

Stream size : 1.32 GiB (14%)

Default : Yes

Forced : No

Text #1

ID : 3

Format : ASS

Codec ID : S_TEXT/ASS

Codec ID/Info : Advanced Sub Station Alpha

Duration : 2 h 0 min

Bit rate : 78 b/s

Count of elements : 1328

Compression mode : Lossless

Stream size : 69.8 KiB (0%)

Title : 简体字幕

Language : Chinese

Default : Yes

Forced : No

Text #2

ID : 4

Format : ASS

Codec ID : S_TEXT/ASS

Codec ID/Info : Advanced Sub Station Alpha

Duration : 2 h 0 min

Bit rate : 78 b/s

Count of elements : 1328

Compression mode : Lossless

Stream size : 69.8 KiB (0%)

Title : 繁体字幕

Language : Dutch

Default : No

Forced : No

文件信息 | 下载本资源 文件总数:8,文件总大小:9.3GB

Info Hash:9f293ff9d63eeff47a06783f52d4f5b7882b70ad

文件信息:8 个文件, 总大小 9.3GB

Tracker:http://tracker.xfsub.com:6868/announce

Tracker:http://tracker.xfsub.com:6868/scrape

 
  • 方子传.The Servant.2010.KR.BluRay.1920x816p.x264.DTS-KOOK.[韩语中字]
    • 影片信息.txt(5.3KB)
    • 影片资料.txt(2.1KB)
    • 方子传.The Servant.2010.KR.BluRay.1920x816p.x264.DTS-KOOK.[韩语中字].jpg(683KB)
    • 方子传.The Servant.2010.KR.BluRay.1920x816p.x264.DTS-KOOK.[韩语中字].mkv(9.3GB)
    • 正式海报.jpg(210.7KB)
    • 正式海报1.jpg(202.5KB)
    • 正式海报2.jpg(212.5KB)
    • 蓝光.jpg(287.6KB)
 

网友评论(0) | 下载本资源

正在加载评论,请稍候......
发表我的看法(评论内容长度最多允许 1000 字)
评论内容
  
发表评论小贴士:
1.类似「顶、沙发」之类没有营养的文字,对勤劳贡献的发布者来说是令人沮丧的反馈信息。
2.提问之前请再仔细看一遍楼主的说明,或许是您遗漏了。
3.勿催片。请相信动漫字幕组对分享是富有激情的,如果确有更新资源,您一定能搜索到。
4.请勿到处挖坑绊人、招贴广告。既占空间让人厌烦,又没人会搭理,于人于己都无利。
5.如果您发现自己的评论不见了,请参考以上4条。
验证码